català
☰ categories ☆☆☆ ◴Noves pel·lícules
Share twitter

Gran Ole' Banús Titties negre banús cumshots banús empassar ...

MetaData[+]

[STREAM]
index=0
codec_name=h264
codec_long_name=H.264 / AVC / MPEG-4 AVC / MPEG-4 part 10
profile=Main
codec_type=video
codec_time_base=1/60
codec_tag_string=avc1
codec_tag=0x31637661
width=720
height=480
coded_width=720
coded_height=480
has_b_frames=0
sample_aspect_ratio=1:1
display_aspect_ratio=3:2
pix_fmt=yuv420p
level=30
color_range=N/A
color_space=unknown
color_transfer=unknown
color_primaries=unknown
chroma_location=left
timecode=N/A
refs=1
is_avc=true
nal_length_size=4
id=N/A
r_frame_rate=30/1
avg_frame_rate=30/1
time_base=1/30
start_pts=0
start_time=0.000000
duration_ts=8255
duration=275.166667
bit_rate=197775
max_bit_rate=N/A
bits_per_raw_sample=8
nb_frames=8255
nb_read_frames=N/A
nb_read_packets=N/A
DISPOSITION:default=1
DISPOSITION:dub=0
DISPOSITION:original=0
DISPOSITION:comment=0
DISPOSITION:lyrics=0
DISPOSITION:karaoke=0
DISPOSITION:forced=0
DISPOSITION:hearing_impaired=0
DISPOSITION:visual_impaired=0
DISPOSITION:clean_effects=0
DISPOSITION:attached_pic=0
TAG:language=und
TAG:handler_name=VideoHandler
[/STREAM]
[STREAM]
index=1
codec_name=aac
codec_long_name=AAC (Advanced Audio Coding)
profile=LC
codec_type=audio
codec_time_base=1/44100
codec_tag_string=mp4a
codec_tag=0x6134706d
sample_fmt=fltp
sample_rate=44100
channels=2
channel_layout=stereo
bits_per_sample=0
id=N/A
r_frame_rate=0/0
avg_frame_rate=0/0
time_base=1/44100
start_pts=0
start_time=0.000000
duration_ts=12135424
duration=275.179683
bit_rate=80981
max_bit_rate=N/A
bits_per_raw_sample=N/A
nb_frames=11851
nb_read_frames=N/A
nb_read_packets=N/A
DISPOSITION:default=1
DISPOSITION:dub=0
DISPOSITION:original=0
DISPOSITION:comment=0
DISPOSITION:lyrics=0
DISPOSITION:karaoke=0
DISPOSITION:forced=0
DISPOSITION:hearing_impaired=0
DISPOSITION:visual_impaired=0
DISPOSITION:clean_effects=0
DISPOSITION:attached_pic=0
TAG:language=und
TAG:handler_name=SoundHandler
[/STREAM]
[STREAM]
index=2
codec_name=unknown
codec_long_name=unknown
profile=unknown
codec_type=data
codec_tag_string=mp4s
codec_tag=0x7334706d
id=N/A
r_frame_rate=0/0
avg_frame_rate=0/0
time_base=1/1000
start_pts=0
start_time=0.000000
duration_ts=1000
duration=1.000000
bit_rate=144
max_bit_rate=N/A
bits_per_raw_sample=N/A
nb_frames=1
nb_read_frames=N/A
nb_read_packets=N/A
DISPOSITION:default=1
DISPOSITION:dub=0
DISPOSITION:original=0
DISPOSITION:comment=0
DISPOSITION:lyrics=0
DISPOSITION:karaoke=0
DISPOSITION:forced=0
DISPOSITION:hearing_impaired=0
DISPOSITION:visual_impaired=0
DISPOSITION:clean_effects=0
DISPOSITION:attached_pic=0
TAG:creation_time=2012-08-24 07:28:14
TAG:language=und
TAG:handler_name=GPAC MPEG-4 OD Handler
[/STREAM]
[STREAM]
index=3
codec_name=unknown
codec_long_name=unknown
profile=unknown
codec_type=data
codec_tag_string=mp4s
codec_tag=0x7334706d
id=N/A
r_frame_rate=0/0
avg_frame_rate=0/0
time_base=1/1000
start_pts=0
start_time=0.000000
duration_ts=1000
duration=1.000000
bit_rate=128
max_bit_rate=N/A
bits_per_raw_sample=N/A
nb_frames=1
nb_read_frames=N/A
nb_read_packets=N/A
DISPOSITION:default=1
DISPOSITION:dub=0
DISPOSITION:original=0
DISPOSITION:comment=0
DISPOSITION:lyrics=0
DISPOSITION:karaoke=0
DISPOSITION:forced=0
DISPOSITION:hearing_impaired=0
DISPOSITION:visual_impaired=0
DISPOSITION:clean_effects=0
DISPOSITION:attached_pic=0
TAG:creation_time=2012-08-24 07:28:14
TAG:language=und
TAG:handler_name=GPAC MPEG-4 Scene Description Handler
[/STREAM]
[STREAM]
index=4
codec_name=unknown
codec_long_name=unknown
profile=unknown
codec_type=data
codec_tag_string=rtp
codec_tag=0x20707472
id=N/A
r_frame_rate=0/0
avg_frame_rate=0/0
time_base=1/90000
start_pts=0
start_time=0.000000
duration_ts=24772410
duration=275.249000
bit_rate=8115
max_bit_rate=N/A
bits_per_raw_sample=N/A
nb_frames=8255
nb_read_frames=N/A
nb_read_packets=N/A
DISPOSITION:default=1
DISPOSITION:dub=0
DISPOSITION:original=0
DISPOSITION:comment=0
DISPOSITION:lyrics=0
DISPOSITION:karaoke=0
DISPOSITION:forced=0
DISPOSITION:hearing_impaired=0
DISPOSITION:visual_impaired=0
DISPOSITION:clean_effects=0
DISPOSITION:attached_pic=0
TAG:creation_time=2012-08-24 07:28:14
TAG:language=und
TAG:handler_name=GPAC ISO Hint Handler
[/STREAM]
[STREAM]
index=5
codec_name=unknown
codec_long_name=unknown
profile=unknown
codec_type=data
codec_tag_string=rtp
codec_tag=0x20707472
id=N/A
r_frame_rate=0/0
avg_frame_rate=0/0
time_base=1/44100
start_pts=0
start_time=0.000000
duration_ts=12138481
duration=275.249002
bit_rate=7783
max_bit_rate=N/A
bits_per_raw_sample=N/A
nb_frames=2143
nb_read_frames=N/A
nb_read_packets=N/A
DISPOSITION:default=1
DISPOSITION:dub=0
DISPOSITION:original=0
DISPOSITION:comment=0
DISPOSITION:lyrics=0
DISPOSITION:karaoke=0
DISPOSITION:forced=0
DISPOSITION:hearing_impaired=0
DISPOSITION:visual_impaired=0
DISPOSITION:clean_effects=0
DISPOSITION:attached_pic=0
TAG:creation_time=2012-08-24 07:28:14
TAG:language=und
TAG:handler_name=GPAC ISO Hint Handler
[/STREAM]
[FORMAT]
nb_streams=6
nb_programs=0
format_name=mov,mp4,m4a,3gp,3g2,mj2
format_long_name=QuickTime / MOV
start_time=0.000000
duration=275.249000
size=10304740
bit_rate=299503
probe_score=100
TAG:major_brand=mp42
TAG:minor_version=1
TAG:compatible_brands=isomiso2avc1mp41mp423gp5
TAG:encoder=Lavf53.32.100
[/FORMAT]
Data: 10/03/2016
Usuari: sexyhot
Mida:720 x 480
Vistes:3,000+ views
Qualitat:480P
Durada:4:35
Categories: cumshots amateur pits grans
Tags: grans pits amateur banús i gran pits negre handjobs

comentari

Tiffany Fox - pornstar de l'hora
veure el vídeo
veure fotos